Free Porn @ actual-porn.org

Go Back   Free Porn Forum > Actual Porn > Forced Sex

Forced Sex Massive collections of Forced Sex for any tastes

Reply
 
Thread Tools Display Modes
  #11  
Old 10-19-2013, 03:47 PM
sonyvaio97 sonyvaio97 is offline
Experienced
 
Join Date: Sep 2013
Posts: 287
Default

[SIZE="4"][COLOR="DarkOrange"]Two Lesbians Brutally Raped By Two Guys - Extreme Abuse & Assault[/COLOR][/SIZE]



[COLOR="Lime"]General[/COLOR][COLOR="Yellow"]
Complete name : Extreme.wmv
Format : Windows Media
File size : 210 MiB
Duration : 40mn 17s
Overall bit rate mode : Constant
Overall bit rate : 729 Kbps
Maximum Overall bit rate : 729 Kbps
Encoded date : UTC 2007-12-24 16:46:34.828
[/COLOR]
[COLOR="Lime"]Video[/COLOR][COLOR="Yellow"]
ID : 2
Format : VC-1
Format profile : MP
Codec ID : WMV3
Codec ID/Info : Windows Media Video 9
Codec ID/Hint : WMV3
Description of the codec : Windows Media Video 9
Duration : 40mn 17s
Bit rate mode : Constant
Bit rate : 700 Kbps
Width : 320 pixels
Height : 240 pixels
Display aspect ratio : 4:3
Frame rate : 29.970 fps
Bit depth : 8 bits
Scan type : Progressive
Compression mode : Lossy
Bits/(Pixel*Frame) : 0.304
Stream size : 202 MiB (96%)
Language : English
[/COLOR]
[COLOR="Lime"]Audio[/COLOR][COLOR="Yellow"]
ID : 1
Format : WMA
Format version : Version 2
Codec ID : 161
Codec ID/Info : Windows Media Audio
Description of the codec : Windows Media Audio 9.1 - 20 kbps, 32 kHz, mono 1-pass CBR
Duration : 40mn 17s
Bit rate mode : Constant
Bit rate : 20.0 Kbps
Channel(s) : 1 channel
Sampling rate : 32.0 KHz
Bit depth : 16 bits
Stream size : 5.76 MiB (3%)
Language : English
[/COLOR]
[SIZE="3"]Download Link:[/SIZE]

[COLOR="Red"][/COLOR]

[COLOR="Magenta"]Have Fun [/COLOR]:)

Reply With Quote
  #12  
Old 10-19-2013, 07:33 PM
sonyvaio97 sonyvaio97 is offline
Experienced
 
Join Date: Sep 2013
Posts: 287
Default

[SIZE="4"][COLOR="DarkOrange"]Beautiful Girls Raped Hard - Extremely Classic Foreign Video of Banging[/COLOR][/SIZE]



[COLOR="Lime"]General[/COLOR][COLOR="Yellow"]
Complete name : classic.avi
Format : AVI
Format/Info : Audio Video Interleave
File size : 872 MiB
Duration : 1h 15mn
Overall bit rate : 1 625 Kbps
Writing library : AVI OpenDML FlasKMPEG plugin (RGB, YUV) release
[/COLOR]
[COLOR="Lime"]Video[/COLOR][COLOR="Yellow"]
ID : 0
Format : MPEG-4 Visual
Codec ID : DIV3
Codec ID/Hint : DivX 3 Low
Duration : 1h 15mn
Bit rate : 1 427 Kbps
Width : 368 pixels
Height : 272 pixels
Display aspect ratio : 4:3
Frame rate : 25.000 fps
Color space : YUV
Chroma subsampling : 4:2:0
Bit depth : 8 bits
Compression mode : Lossy
Bits/(Pixel*Frame) : 0.570
Stream size : 766 MiB (88%)
[/COLOR]
[COLOR="Lime"]Audio[/COLOR][COLOR="Yellow"]
ID : 1
Format : MPEG Audio
Format version : Version 1
Format profile : Layer 3
Mode : Joint stereo
Mode extension : MS Stereo
Codec ID : 55
Codec ID/Hint : MP3
Duration : 1h 15mn
Bit rate mode : Constant
Bit rate : 192 Kbps
Channel(s) : 2 channels
Sampling rate : 48.0 KHz
Compression mode : Lossy
Stream size : 103 MiB (12%)
Alignment : Split accross interleaves
Interleave, duration : 200 ms (5.00 video frames)
[/COLOR]
[SIZE="3"]Download Link:[/SIZE]

[COLOR="Red"][/COLOR]

[COLOR="Magenta"]Have Fun [/COLOR]:)

Reply With Quote
  #13  
Old 10-26-2013, 07:06 AM
sonyvaio97 sonyvaio97 is offline
Experienced
 
Join Date: Sep 2013
Posts: 287
Default

[SIZE="4"][COLOR="DarkOrange"]Blonde Babe Attacked & Extreme Tortured, Extreme Force Rape[/COLOR][/SIZE]



[COLOR="Lime"]General[/COLOR][COLOR="Yellow"]
Complete name : Attacked.avi
Format : AVI
Format/Info : Audio Video Interleave
File size : 165 MiB
Duration : 31mn 24s
Overall bit rate : 733 Kbps
Writing application : Lavf52.20.0
[/COLOR]
[COLOR="Lime"]Video[/COLOR][COLOR="Yellow"]
ID : 0
Format : xvid
Codec ID : xvid
Duration : 31mn 24s
Bit rate : 401 Kbps
Width : 528 pixels
Height : 400 pixels
Display aspect ratio : 4:3
Frame rate : 25.000 fps
Bits/(Pixel*Frame) : 0.076
Stream size : 90.0 MiB (55%)
[/COLOR]
[COLOR="Lime"]Audio[/COLOR][COLOR="Yellow"]
ID : 1
Format : MPEG Audio
Format version : Version 1
Format profile : Layer 3
Mode : Joint stereo
Mode extension : MS Stereo
Codec ID : 55
Codec ID/Hint : MP3
Duration : 31mn 24s
Bit rate mode : Constant
Bit rate : 320 Kbps
Channel(s) : 2 channels
Sampling rate : 44.1 KHz
Compression mode : Lossy
Stream size : 71.9 MiB (44%)
Alignment : Aligned on interleaves
Interleave, duration : 26 ms (0.65 video frame)
Writing library : LAME3.98
[/COLOR]
[SIZE="3"]Download Link:[/SIZE]

[COLOR="Red"][/COLOR]

[COLOR="Magenta"]Have Fun [/COLOR]:)

Reply With Quote
  #14  
Old 10-29-2013, 01:38 PM
zsakopapa zsakopapa is offline
Experienced
 
Join Date: Sep 2013
Posts: 495
Default



Title: Blonde home invasion.avi- 159 MB
Time: 29mn 14s
Res.: 640 x 480

Download:

http://keep2s.cc/file/526fc1b97029b/...e_invasion.avi

Reply With Quote
  #15  
Old 10-29-2013, 01:39 PM
zsakopapa zsakopapa is offline
Experienced
 
Join Date: Sep 2013
Posts: 495
Default



Title: Blonde home invasion.avi- 159 MB
Time: 29mn 14s
Res.: 640 x 480

Download:

Keep2Share.cc - View File

Reply With Quote
  #16  
Old 10-29-2013, 02:19 PM
zsakopapa zsakopapa is offline
Experienced
 
Join Date: Sep 2013
Posts: 495
Default



Title: 2 on bride.wmv- 75 MB
Time: 09mn 57s
Res.: 520 x 416

Download:

http://keep2s.cc/file/526fcb7989112/2_on_bride.wmv

Reply With Quote
  #17  
Old 10-29-2013, 02:30 PM
zsakopapa zsakopapa is offline
Experienced
 
Join Date: Sep 2013
Posts: 495
Default



Title: 2 on bride.wmv- 75 MB
Time: 09mn 57s
Res.: 520 x 416

Download:

Keep2Share.cc - View File

Reply With Quote
  #18  
Old 10-29-2013, 10:12 PM
zsakopapa zsakopapa is offline
Experienced
 
Join Date: Sep 2013
Posts: 495
Default



Title: Friends join in - Suprise!.avi- 43 MB
Time: 04mn 39s
Res.: 512 x 304

Download:

Keep2Share.cc - View File

Reply With Quote
  #19  
Old 10-29-2013, 10:15 PM
zsakopapa zsakopapa is offline
Experienced
 
Join Date: Sep 2013
Posts: 495
Default



Title: Friends join in - Suprise!.avi- 43 MB
Time: 04mn 39s
Res.: 512 x 304

Download:

http://keep2s.cc/file/526fe693ef510/...Suprise%21.avi

Reply With Quote
  #20  
Old 10-31-2013, 04:30 PM
zsakopapa zsakopapa is offline
Experienced
 
Join Date: Sep 2013
Posts: 495
Default



Title: Anal Rape01.wmv- 225 MB
Time: 33mn 46s
Res.: 400 x 300

Download:

Keep2Share.cc - View File

Reply With Quote
Reply

Bookmarks


Currently Active Users Viewing This Thread: 1 (0 members and 1 guests)
 
Thread Tools
Display Modes

Posting Rules
You may not post new threads
You may not post replies
You may not post attachments
You may not edit your posts

BB code is On
Smilies are On
[IMG] code is On
HTML code is Off

Forum Jump

All times are GMT. The time now is 04:41 AM.


18+ Don't miss your chance! Click at this link and download the most actual porn in the web! You are girl or boy, man or woman, it is not important, because at our forum everyone will find what he/she needs regardless of age and gender! Fresh releases of mainstream vaginal porn for classic porn lovers, anal and gang bang for experts, extreme porn lovers will find BDSM and Femdom from the best sites. We are monitoring links and removing dead content. Visit us and become a part of our Actual Porn family!

Attention! If you are under 18, please leave this site!

If you are the author or copyright holder of an image or story that has been uploaded without your consent please Contact Us to request its removal.
Powered by vBulletin® Version 3.8.7
Copyright ©2000 - 2018, vBulletin Solutions, Inc.

Valid XHTML 1.0 TransitionalПравильный CSS!
actual porn forum 2014 (c)